Вернуться   Форум Рубцовска > Городской Интернет > Доска объявлений > Услуги
+14°Давление 750
Влажность 37%
Ветер 3 м/с В
Комфорт +14°

Ответ
 
Опции темы Опции просмотра
  #21  
Старый 13.10.2015, 01:01
vladimirb61 vladimirb61 вне форума
Ефрейтор
 
Регистрация: 02.02.2012
Сообщений: 64
Спасибо: 45
По умолчанию Лента

Если это кинопленка приноси.И раздели на 36 и умножь на сто р юморист.
Оцифрую хоть 5 км -плати.
Ответить с цитированием
  #22  
Старый 13.10.2015, 01:22
Аватар для darovit
darovit darovit вне форума
Генерал-Полковник
 
Регистрация: 29.11.2009
Адрес: в пожизненном бане
Сообщений: 7,141
Спасибо: 6,664
Отправить сообщение для darovit с помощью ICQ
По умолчанию

Цитата:
Сообщение от vladimirb61 Посмотреть сообщение
Если это кинопленка приноси.И раздели на 36 и умножь на сто р юморист.
Оцифрую хоть 5 км -плати.
зачем делить на 36, если это кинопленка? так-то там количество кадров тысячами исчисляется на средний фильм
__________________
ХВАТИТ РУГАТЬ ПРЕЗИДЕНТА!
...
ДАЙТЕ ЕМУ СРОК

лучше пожизненный
И ВСЕ НАЛАДИТСЯ

___________________________________________
Меня не беспокоит мнение людей, ведь в ответе перед Богом я буду стоять один, без них.
социальный шанс
http://socialchance.net/?partner_id=221921

8983-18-фыфырефыфыре-3-семьсемь
Ответить с цитированием
  #23  
Старый 13.10.2015, 15:41
Аватар для vat
vat vat вне форума
Модератор
 
Регистрация: 07.10.2006
Сообщений: 320
Спасибо: 166
По умолчанию

Цитата:
Сообщение от writer22rus Посмотреть сообщение
А на мой вопрос ответ будет???
А на мой?
Ответить с цитированием
  #24  
Старый 13.10.2015, 17:56
vladimirb61 vladimirb61 вне форума
Ефрейтор
 
Регистрация: 02.02.2012
Сообщений: 64
Спасибо: 45
По умолчанию Про битрейт

Для суперумника с каким хочешь с тем и оцифрую.
Ответить с цитированием
  #25  
Старый 14.10.2015, 01:17
Русский Мужик Русский Мужик вне форума
Старший прапорщик
 
Регистрация: 06.05.2014
Сообщений: 440
Спасибо: 197
По умолчанию

обращался,всё супер
ап мастеру
Ответить с цитированием
  #26  
Старый 14.10.2015, 02:20
Аватар для vat
vat vat вне форума
Модератор
 
Регистрация: 07.10.2006
Сообщений: 320
Спасибо: 166
По умолчанию

Цитата:
Сообщение от vladimirb61 Посмотреть сообщение
Для суперумника с каким хочешь с тем и оцифрую.
Так я сам оцифровываю, просто хотел спросить совета у гуру оцифровки.
Ответить с цитированием
Этот пользователь поблагодарил vat(а) за это полезное сообщение:
Kuzma (04.01.2016)
  #27  
Старый 29.11.2015, 14:46
vladimirb61 vladimirb61 вне форума
Ефрейтор
 
Регистрация: 02.02.2012
Сообщений: 64
Спасибо: 45
По умолчанию

Переделаю музыку или видео в другие форматы.
Ответить с цитированием
  #28  
Старый 03.01.2016, 14:17
vladimirb61 vladimirb61 вне форума
Ефрейтор
 
Регистрация: 02.02.2012
Сообщений: 64
Спасибо: 45
По умолчанию

...
Ответить с цитированием
  #29  
Старый 29.02.2016, 00:26
vladimirb61 vladimirb61 вне форума
Ефрейтор
 
Регистрация: 02.02.2012
Сообщений: 64
Спасибо: 45
По умолчанию

...
Ответить с цитированием
  #30  
Старый 29.02.2016, 01:02
Аватар для Vladimir-web
Vladimir-web Vladimir-web вне форума
Старший лейтенант
 
Регистрация: 18.02.2010
Адрес: Рубцовск
Сообщений: 958
Спасибо: 294
По умолчанию

Цитата:
Сообщение от vat Посмотреть сообщение
Так я сам оцифровываю, просто хотел спросить совета у гуру оцифровки.
просто если человек этим занимается, то какими пользоваться кодеками он внроятно всего определил путём проб и ошибок, тратя время и нервы, а Вам все на блюдечке расскажи да покажи без обид, но я бы не сказал.
__________________

896З5З448ЗЗ
при звонке сказать что с форума

Моя группа в контакте посвящённая аудиотехнике
https://vk.com/club53574980
Ответить с цитированием
  #31  
Старый 29.02.2016, 01:47
Аватар для vat
vat vat вне форума
Модератор
 
Регистрация: 07.10.2006
Сообщений: 320
Спасибо: 166
По умолчанию

Цитата:
Сообщение от Vladimir-web Посмотреть сообщение
просто если человек этим занимается, то какими пользоваться кодеками он внроятно всего определил путём проб и ошибок, тратя время и нервы, а Вам все на блюдечке расскажи да покажи без обид, но я бы не сказал.
Ага, военная тайна

А мне вот не жалко:
Кодек: Н.264
Битрейт: 5000

Пример оцифровки

MediaInfo
General
Complete name : D:\VHS\?\Кассета_1\Кассета_1.mp4
Format : MPEG-4
Format profile : Base Media / Version 2
Codec ID : mp42 (mp42/isom)
File size : 4.08 GiB
Duration : 1h 54mn
Overall bit rate mode : Variable
Overall bit rate : 5 120 Kbps
Encoded date : UTC 2016-02-02 08:24:21
Tagged date : UTC 2016-02-02 08:24:21

Video
ID : 2
Format : AVC
Format/Info : Advanced Video Codec
Format profile : Baseline@L3
Format settings, CABAC : No
Format settings, ReFrames : 2 frames
Format settings, GOP : M=1, N=30
Codec ID : avc1
Codec ID/Info : Advanced Video Coding
Duration : 1h 54mn
Source duration : 1h 54mn
Bit rate mode : Variable
Bit rate : 4 727 Kbps
Maximum bit rate : 5 000 Kbps
Width : 720 pixels
Height : 576 pixels
Display aspect ratio : 4:3
Frame rate mode : Variable
Frame rate : 24.968 fps
Minimum frame rate : 3.333 fps
Maximum frame rate : 50.000 fps
Original frame rate : 12.500 fps
Color space : YUV
Chroma subsampling : 4:2:0
Bit depth : 8 bits
Scan type : Progressive
Bits/(Pixel*Frame) : 0.457
Stream size : 3.77 GiB (92% )
Source stream size : 3.77 GiB (92% )
Language : English
Encoded date : UTC 2016-02-02 08:24:21
Tagged date : UTC 2016-02-02 08:24:21
mdhd_Duration : 6844949

Audio
ID : 1
Format : AAC
Format/Info : Advanced Audio Codec
Format profile : LC
Codec ID : 40
Duration : 1h 54mn
Bit rate mode : Constant
Bit rate : 384 Kbps
Nominal bit rate : 128 Kbps
Channel(s) : 2 channels
Channel positions : Front: L R
Sampling rate : 48.0 KHz
Frame rate : 46.875 fps (1024 spf)
Compression mode : Lossy
Stream size : 313 MiB (8% )
Language : English
Encoded date : UTC 2016-02-02 08:24:21
Tagged date : UTC 2016-02-02 08:24:21
mdhd_Duration : 6844950

Ответить с цитированием
Этот пользователь поблагодарил vat(а) за это полезное сообщение:
Tabula rasa (29.11.2016)
  #32  
Старый 18.05.2016, 09:52
vladimirb61 vladimirb61 вне форума
Ефрейтор
 
Регистрация: 02.02.2012
Сообщений: 64
Спасибо: 45
По умолчанию

...
Ответить с цитированием
  #33  
Старый 19.06.2016, 17:19
vladimirb61 vladimirb61 вне форума
Ефрейтор
 
Регистрация: 02.02.2012
Сообщений: 64
Спасибо: 45
По умолчанию

Запишу музыку на minidisc.
Миниатюры
Нажмите на изображение для увеличения
Название: Mini-disc.jpg
Просмотров: 77
Размер:	115.3 Кб
ID:	81005  
Ответить с цитированием
  #34  
Старый 01.09.2016, 23:12
vladimirb61 vladimirb61 вне форума
Ефрейтор
 
Регистрация: 02.02.2012
Сообщений: 64
Спасибо: 45
По умолчанию

...
Ответить с цитированием
  #35  
Старый 27.11.2016, 16:41
vladimirb61 vladimirb61 вне форума
Ефрейтор
 
Регистрация: 02.02.2012
Сообщений: 64
Спасибо: 45
По умолчанию

...
Ответить с цитированием
  #36  
Старый 09.02.2017, 23:11
vladimirb61 vladimirb61 вне форума
Ефрейтор
 
Регистрация: 02.02.2012
Сообщений: 64
Спасибо: 45
По умолчанию

...
Ответить с цитированием
  #37  
Старый 21.05.2017, 23:29
vladimirb61 vladimirb61 вне форума
Ефрейтор
 
Регистрация: 02.02.2012
Сообщений: 64
Спасибо: 45
По умолчанию

////
Ответить с цитированием
  #38  
Старый 17.09.2017, 09:47
vladimirb61 vladimirb61 вне форума
Ефрейтор
 
Регистрация: 02.02.2012
Сообщений: 64
Спасибо: 45
По умолчанию

...
Ответить с цитированием
  #39  
Старый 14.03.2018, 17:00
vladimirb61 vladimirb61 вне форума
Ефрейтор
 
Регистрация: 02.02.2012
Сообщений: 64
Спасибо: 45
По умолчанию

....
Ответить с цитированием
Ответ

Опции темы
Опции просмотра

Ваши права в разделе
Вы не можете создавать новые темы
Вы не можете отвечать в темах
Вы не можете прикреплять вложения
Вы не можете редактировать свои сообщения

BB коды Вкл.
Смайлы Вкл.
[IMG] код Вкл.
HTML код Выкл.

Быстрый переход


Часовой пояс GMT +7, время: 13:56.


Powered by vBulletin® Version 3.8.4
Copyright ©2000 - 2018, Jelsoft Enterprises Ltd. Перевод: zCarot